Skip to main content

Soulive Live at Royal Family Affair At Stratton Mountain Ski Resort on 2011-08-13

by Soulive





Collection Soulive
Band/Artist Soulive
Venue Royal Family Affair At Stratton Mountain Ski Resort
Location Stratton Mountain, VT

Source Schoeps MK41>KC5>CMC6>Sonosax SX-M2>Apogee Mini-me(aes out,24bit/96khz)>COAX>Edirol R-44
Lineage SDHC Card>USB>Macbook Pro>Wave Editor(tracking,fades,resample(izotope)/dither(mbit+)to 16 bit/44.1k)>XAct(FLAC 8,ffp,fix sbe)
Taped by Andy Murray
Transferred by Andy Murray

Notes

Soulive
2011-08-13
Royal Family Affair
Stratton, VT

Recorded and transferred by Andy Murray

Mics were 100' from stage DFC NOS

Schoeps MK41>KC5>CMC6>Sonosax SX-M2>Apogee Mini-me(aes out24bit/96khz)>COAX>Edirol R-44

SDHC Card>USB>Macbook Pro>Wave Editor(tracking,fades,resample(izotope)/dither(mbit+) to 16bit/44.1 khz)>XACT(FLAC 8,ffp,fix sbe)

Thanks to Groundhog Corey for the clampspace

2 Discs
1 Set

length expanded size cdr WAVE problems fmt ratio filename
1:06.47 11752988 B --- -- ----- soulive2011-08-13_mk41_1644_d1t01.wav
6:34.21 69551036 B --- -- ----- soulive2011-08-13_mk41_1644_d1t02.wav
6:56.33 73460060 B --- -- ----- soulive2011-08-13_mk41_1644_d1t03.wav
10:40.19 112940732 B --- -- ----- soulive2011-08-13_mk41_1644_d1t04.wav
7:26.68 78834380 B --- -- ----- soulive2011-08-13_mk41_1644_d1t05.wav
10:24.20 110120684 B --- -- ----- soulive2011-08-13_mk41_1644_d1t06.wav
6:28.62 68589068 B --- -- ----- soulive2011-08-13_mk41_1644_d1t07.wav
11:10.00 118188044 B --- -- ----- soulive2011-08-13_mk41_1644_d1t08.wav
10:01.22 106068188 B --- -- ----- soulive2011-08-13_mk41_1644_d1t09.wav
9:26.32 99917708 B --- -- ----- soulive2011-08-13_mk41_1644_d1t10.wav
7:07.21 75372236 B --- -- ----- soulive2011-08-13_mk41_1644_d1t11.wav
12:21.68 130872380 B --- -- ----- soulive2011-08-13_mk41_1644_d1t12.wav
99:44.38 1055667504 B 1.0000 (12 files)

Reviews

There are no reviews yet. Be the first one to write a review.
PEOPLE ALSO FOUND
Soulive
by Soulive
644
0
1
( 1 reviews )
Source: ORTF DPA 4023>V3>AD2K>HD-P@(24bit/48khz)
Soulive
by Soulive
117
0
0
Source: DPA 4023>Lunatec V3>AD2K(24bit/48khz)>Tascam HD-P2
Soulive
by Soulive
166
0
0
Source: ORTF DPA 4023>V3>AD2K>HD-P@(24bit/48khz)
Source: Schoeps MK41>KC5>CMC6>Sonosax SX-M2>Apogee Mini-me(aes out,24bit/96khz)>COAX>Edirol R-44
Soulive
by Soulive
127
0
0
Source: Schoeps MK41>KC5>CMC6>Sonosax SX-R4(24bit/96khz)
Soulive
by Soulive
89
1
0
Source: Schoeps MK41>KC5>CMC6>Sonosax SX-R4(24bit/96khz)
Source: Schoeps MK41>KC5>CMC6>Sonosax SX-M2>Apogee Mini-me(aes out,24bit/96khz)>COAX>Edirol R-44
Soulive
by Soulive
721
1
1
( 1 reviews )
Source: DPA 4023>Lunatec V3>AD2K(24bit/48khz)>Tascam HD-P2
Source: Schoeps MK41>KC5>CMC6>Sonosax SX-M2>Apogee Mini-me(aes out,24bit/96khz)>COAX>Edirol R-44 & Soundboard>R-44
( 1 reviews )
Source: Schoeps Mk41>KC5>CMC6>Sonosax SX-R4(24bit/96khz) & Soundboard